Gate: Jieitai Kanochi nite, Kaku Tatakaeri 2nd Season
[Sub English]
lacoccola.info - The Largest Bittorent System Login   |    Register
Latest Articles
Most searched
Hot torrents
Movie Torrents
Hot torrents
TV Torrents
View Torrent Info: Arrow.S06E18.HDTV.x264-SVA[eztv]
View Torrent Info: Lucifer.S03E20.HDTV.x264-KILLERS[eztv]
View Torrent Info: Fear.the.Walking.Dead.S04E01.HDTV.x264-SVA[eztv]
View Torrent Info: Lethal.Weapon.S02E18.WEB.x264-TBS[eztv]
View Torrent Info: Supernatural.S13E18.HDTV.x264-SVA[eztv]
View Torrent Info: Supergirl.S03E14.HDTV.x264-SVA[eztv]
View Torrent Info: Young.Sheldon.S01E18.HDTV.x264-SVA[eztv]
View Torrent Info: Billions.S03E04.WEBRip.x264-PBS[eztv]
View Torrent Info: Black.Lightning.S01E12.HDTV.x264-SVA[eztv]
View Torrent Info: Brooklyn.Nine-Nine.S05E16.WEB.x264-TBS[eztv]
lacoccola.info > Categories > Movies torrents > h.264/x264 torrents


Browse Movies torrents

Dawning Of The Dead 2017 HDRip x264 AAC [MW] torrent



Download torrent: Download Dawning Of The Dead 2017 HDRip x264 AAC [MW] torrent Magnet link Bookmark Torrent: Dawning Of The Dead 2017 HDRip x264 AAC [MW] Dawning Of The Dead 2017 HDRip x264 AAC [MW] torrent | if not working, try instead: Magnet Link
Info hash: 3413AA10F1EA812E727D4EF03ABF0ABA3D339E62
Category: Categories > Movies torrents > h.264/x264 torrents
Trackers:
17    View all torrent trackers >
Health:
 seeds: 2 ,  leechers: 2 |  Update >
Torrent language:  
Total Size: 789.50 MB
Torrent status: Added by trusted uploader Added by trusted uploader Trusted Uploader Site Friend Superman Sun
Uploader: Trusted Uploader Site Friend Superman Sun
Torrent added: 2018-04-17 10:07:33
 

Download Dawning Of The Dead 2017 HDRip x264 AAC [MW] torrent if not working, try downloading torrent using Download Dawning Of The Dead 2017 HDRip x264 AAC [MW] via Magnet Link




Torrent Description





General
Format : Matroska
Format version : Version 4 / Version 2
File size : 789 MiB
Duration : 1 h 43 min
Overall bit rate : 1 063 kb/s

Video
ID : 1
Format : AVC
Format/Info : Advanced Video Codec
Format profile : [email protected]
Format settings : CABAC / 4 Ref Frames
Format settings, CABAC : Yes
Format settings, RefFrames : 4 frames
Codec ID : V_MPEG4/ISO/AVC
Duration : 1 h 43 min
Bit rate : 1 000 kb/s
Width : 720 pixels
Height : 304 pixels
Display aspect ratio : 2.35:1
Frame rate mode : Constant
Frame rate : 23.976 (24000/1001) FPS
Color space : YUV
Chroma subsampling : 4:2:0
Bit depth : 8 bits
Scan type : Progressive
Bits/(Pixel*Frame) : 0.191
Stream size : 742 MiB (94%)
Writing library : x264 core 155 r2893 b00bcaf
Default : Yes
Forced : No

Audio
ID : 2
Format : AAC
Format/Info : Advanced Audio Codec
Format profile : HE-AAC / LC
Format settings : Explicit
Codec ID : A_AAC-2
Duration : 1 h 43 min
Bit rate : 62.7 kb/s
Channel(s) : 2 channels
Channel positions : Front: L R
Sampling rate : 48.0 kHz / 24.0 kHz
Frame rate : 23.438 FPS (1024 SPF)
Compression mode : Lossy
Stream size : 46.5 MiB (6%)
Default : Yes
Forced : No














#moviezworldz -> To avoid fakes, ALWAYS check that the torrent was added on lacoccola.info by moviezworldz

http://lacoccola.info/



Download Dawning Of The Dead 2017 HDRip x264 AAC [MW] torrent


Comments (please add your comment)
No comments



Home - Browse Torrents - Upload Torrent - Stat - Forum - FAQ - Login
lacoccola.info is in compliance with copyrights
2006-2018 lacoccola.info