Gupp Chupp
Boris Cheshirkov
lacoccola.info - The Largest Bittorent System Login   |    Register
Latest Articles
Most searched
Hot torrents
Movie Torrents
Hot torrents
TV Torrents
View Torrent Info: Arrow.S06E18.HDTV.x264-SVA[eztv]
View Torrent Info: Lucifer.S03E20.HDTV.x264-KILLERS[eztv]
View Torrent Info: Fear.the.Walking.Dead.S04E01.HDTV.x264-SVA[eztv]
View Torrent Info: Lethal.Weapon.S02E18.WEB.x264-TBS[eztv]
View Torrent Info: Supernatural.S13E18.HDTV.x264-SVA[eztv]
View Torrent Info: Supergirl.S03E14.HDTV.x264-SVA[eztv]
View Torrent Info: Young.Sheldon.S01E18.HDTV.x264-SVA[eztv]
View Torrent Info: Billions.S03E04.WEBRip.x264-PBS[eztv]
View Torrent Info: Black.Lightning.S01E12.HDTV.x264-SVA[eztv]
View Torrent Info: Brooklyn.Nine-Nine.S05E16.WEB.x264-TBS[eztv]
lacoccola.info > Categories > Movies torrents > HD torrents


Browse Movies torrents

18+ In The Fade 2018 Movies HDRip x264 5.1 ESubs with Sample ☻rDX☻ torrent



Download torrent: Download 18+ In The Fade 2018 Movies HDRip x264 5.1 ESubs with Sample ☻rDX☻ torrent Magnet link Bookmark Torrent: 18+ In The Fade 2018 Movies HDRip x264 5.1 ESubs with Sample ☻rDX☻ 18+ In The Fade 2018 Movies HDRip x264 5.1 ESubs with Sample ☻rDX☻ torrent | if not working, try instead: Magnet Link
Info hash: D4F20A2634E387218C1D2939B383CFD4B1F19EE4
Category: Categories > Movies torrents > HD torrents
Trackers:
14    View all torrent trackers >
Health:
 seeds: 0 ,  leechers: 0 |  Update >
Torrent language:  
Total Size: 847.00 MB
Torrent status: Added by trusted uploader Added by trusted uploader Trusted Uploader Site Friend Superman Sun
Uploader: Trusted Uploader Site Friend Superman Sun
Torrent added: 2018-04-17 10:08:00
 

Download 18+ In The Fade 2018 Movies HDRip x264 5.1 ESubs with Sample ☻rDX☻ torrent if not working, try downloading torrent using Download 18+ In The Fade 2018 Movies HDRip x264 5.1 ESubs with Sample ☻rDX☻ via Magnet Link




Torrent Description

18+ In The Fade 2018 Movies HDRip x264 5.1 ESubs with Sample ☻rDX☻
===============================================================================================

SCREEN SHOTS:



or

http://iphonehosting.eu/2018/4/bankaccount/1.html

File size : 839 MiB
Duration : 1 h 46 min
Overall bit rate : 1 105 kb/s
Movie name : 18+ In The Fade 2018 Movies HDRip x264 5.1 ESubs ☻rDX☻

Video
ID : 2
Format : AVC
Format/Info : Advanced Video Codec
Format profile : [email protected]
Format settings, CABAC : Yes
Format settings, ReFrames : 2 frames
Format settings, GOP : M=1, N=12
Codec ID : V_MPEG4/ISO/AVC
Duration : 1 h 46 min
Bit rate mode : Constant
Bit rate : 722 kb/s
Width : 720 pixels
Height : 304 pixels
Display aspect ratio : 2.35:1
Frame rate mode : Constant
Frame rate : 23.976 FPS
Color space : YUV
Chroma subsampling : 4:2:0
Bit depth : 8 bits
Scan type : Progressive
Bits/(Pixel*Frame) : 0.138
Stream size : 531 MiB (63%)
Title : ☻rDX☻
Default : Yes
Forced : No

Audio
ID : 1
Format : AC-3
Format/Info : Audio Coding 3
Mode extension : CM (complete main)
Format settings, Endianness : Big
Codec ID : A_AC3
Duration : 1 h 46 min
Bit rate mode : Constant
Bit rate : 384 kb/s
Channel(s) : 6 channels
Channel positions : Front: L C R, Side: L R, LFE
Sampling rate : 48.0 kHz
Frame rate : 31.250 FPS (1536 spf)
Bit depth : 16 bits
Compression mode : Lossy
Stream size : 292 MiB (35%)
Title : ☻rDX☻
Default : Yes
Forced : No

Text
ID : 3
Format : UTF-8
Codec ID : S_TEXT/UTF8
Codec ID/Info : UTF-8 Plain Text
Title : ☻rDX☻
Default : Yes
Forced : No



IMDB : http://www.imdb.com/title/tt5723272



#nehalpuja -> To avoid fakes, ALWAYS check that the torrent was added on lacoccola.info by nehalpuja

http://lacoccola.info/



Download 18+ In The Fade 2018 Movies HDRip x264 5.1 ESubs with Sample ☻rDX☻ torrent


Comments (please add your comment)
No comments



Home - Browse Torrents - Upload Torrent - Stat - Forum - FAQ - Login
lacoccola.info is in compliance with copyrights
2006-2018 lacoccola.info