Mistresses (US)
Uniblue SpeedUpMyPC 2014 v6.0.4.9.
lacoccola.info - The Largest Bittorent System Login   |    Register
Latest Articles
Most searched
Hot torrents
Movie Torrents
Hot torrents
TV Torrents
View Torrent Info: The.Big.Bang.Theory.S11E21.HDTV.x264-SVA[eztv]
View Torrent Info: Arrow.S06E19.HDTV.x264-SVA[eztv]
View Torrent Info: Supergirl.S03E14.HDTV.x264-SVA[eztv]
View Torrent Info: Krypton.S01E05.HDTV.x264-SVA[eztv]
View Torrent Info: Lucifer.S03E20.HDTV.x264-KILLERS[eztv]
View Torrent Info: Marvels.Agents.of.S.H.I.E.L.D.S05E18.HDTV.x264-KILLERS[eztv]
View Torrent Info: The.Flash.2014.S04E18.HDTV.x264-KILLERS[eztv]
View Torrent Info: The.Originals.S05E01.HDTV.x264-SVA[eztv]
View Torrent Info: Brooklyn.Nine-Nine.S05E16.WEB.x264-TBS[eztv]
View Torrent Info: Blindspot.S03E18.PROPER.HDTV.x264-KILLERS[eztv]
lacoccola.info > Categories > Movies torrents > h.264/x264 torrents


Browse Movies torrents

Dear Dictator 2018 Movies BRRip x264 5.1 with Sample ☻rDX☻ torrent



Download torrent: Download Dear Dictator 2018 Movies BRRip x264 5.1 with Sample ☻rDX☻ torrent Magnet link Bookmark Torrent: Dear Dictator 2018 Movies BRRip x264 5.1 with Sample ☻rDX☻ Dear Dictator 2018 Movies BRRip x264 5.1 with Sample ☻rDX☻ torrent | if not working, try instead: Magnet Link
Info hash: C9F595F8769CA4185FF707713274F5C7B6D34000
Category: Categories > Movies torrents > h.264/x264 torrents
Trackers:
14    View all torrent trackers >
Health:
 seeds: 0 ,  leechers: 0 |  Update >
Torrent language:  
Total Size: 847.40 MB
Torrent status: Added by trusted uploader Added by trusted uploader Trusted Uploader Site Friend Superman Sun
Uploader: Trusted Uploader Site Friend Superman Sun
Torrent added: 2018-04-17 10:41:00
 

Download Dear Dictator 2018 Movies BRRip x264 5.1 with Sample ☻rDX☻ torrent if not working, try downloading torrent using Download Dear Dictator 2018 Movies BRRip x264 5.1 with Sample ☻rDX☻ via Magnet Link




Torrent Description

Dear Dictator 2018 Movies BRRip x264 5.1 with Sample ☻rDX☻
===============================================================================================

SCREEN SHOTS:



or

http://iphonehosting.eu/2018/4/bank/1.html

File size : 839 MiB
Duration : 1 h 30 min
Overall bit rate mode : Constant
Overall bit rate : 1 299 kb/s
Movie name : Dear Dictator 2018 Movies BRRip x264 5.1 ☻rDX☻

Video
ID : 2
Format : AVC
Format/Info : Advanced Video Codec
Format profile : [email protected]
Format settings, CABAC : Yes
Format settings, ReFrames : 2 frames
Format settings, GOP : M=1, N=12
Codec ID : V_MPEG4/ISO/AVC
Duration : 1 h 30 min
Bit rate mode : Constant
Bit rate : 852 kb/s
Width : 720 pixels
Height : 392 pixels
Display aspect ratio : 1.85:1
Frame rate mode : Constant
Frame rate : 23.976 FPS
Color space : YUV
Chroma subsampling : 4:2:0
Bit depth : 8 bits
Scan type : Progressive
Bits/(Pixel*Frame) : 0.126
Stream size : 533 MiB (64%)
Title : ☻rDX☻
Default : Yes
Forced : No

Audio
ID : 1
Format : AC-3
Format/Info : Audio Coding 3
Mode extension : CM (complete main)
Format settings, Endianness : Big
Codec ID : A_AC3
Duration : 1 h 30 min
Bit rate mode : Constant
Bit rate : 448 kb/s
Channel(s) : 6 channels
Channel positions : Front: L C R, Side: L R, LFE
Sampling rate : 48.0 kHz
Frame rate : 31.250 FPS (1536 spf)
Bit depth : 16 bits
Compression mode : Lossy
Stream size : 290 MiB (34%)
Title : ☻rDX☻
Default : Yes
Forced : No



IMDB : http://www.imdb.com/title/tt5779540



#nehalpuja -> To avoid fakes, ALWAYS check that the torrent was added on lacoccola.info by nehalpuja

http://lacoccola.info/



Download Dear Dictator 2018 Movies BRRip x264 5.1 with Sample ☻rDX☻ torrent


Comments (please add your comment)
No comments



Home - Browse Torrents - Upload Torrent - Stat - Forum - FAQ - Login
lacoccola.info is in compliance with copyrights
2006-2018 lacoccola.info